The Looking Glass 2015 1080p WEB-DL DD5 1 H 264 CRO-DIAMOND

The Looking Glass 2015 1080p WEB-DL DD5 1 H 264 CRO-DIAMOND Torrent
Size: 4.1 GB
Language: English
Uploader: dmd12

Download The Looking Glass 2015 1080p WEB-DL DD5 1 H 264 CRO-DIAMOND Torrent torrent video for PC, tablet, MAC, IPhone or Android device.
The Looking Glass 2015 1080p WEB-DL DD5 1 H 264 CRO-DIAMOND Torrent For Torrent download Link. Scroll down!.


MOVIE TRAILER BELLOW.






Code:

General
Unique ID : 97254221754771397894092410724178385233 (0x492A7B568F7FCB826826B191A46ED951)
Complete name : The.Looking.Glass.2015.1080p.WEB-DL.DD5.1.H.264.CRO-DIAMOND.mkv
Format : Matroska
Format version : Version 4 / Version 2
File size : 4.06 GiB
Duration : 1h 46mn
Overall bit rate : 5 455 Kbps
Movie name : CRO DIAMOND 1080p
Encoded date : UTC 2018-02-02 01:13:00
Writing application : mkvmerge v7.2.0 ('On Every Street') 64bit built on Oct 7 2014 18:52:30
Writing library : libebml v1.3.0 + libmatroska v1.4.1
DURATION : 01:41:09.333000000
NUMBER_OF_FRAMES : 609
NUMBER_OF_BYTES : 21169
_STATISTICS_WRITING_APP : mkvmerge v7.2.0 ('On Every Street') 64bit built on Oct 7 2014 18:52:30
_STATISTICS_WRITING_DATE_UTC : 2018-02-02 01:13:00
_STATISTICS_TAGS : BPS DURATION NUMBER_OF_FRAMES NUMBER_OF_BYTES

Video
ID : 1
Format : AVC
Format/Info : Advanced Video Codec
Format profile :
[email protected]
Format settings, CABAC : Yes
Format settings, ReFrames : 4 frames
Codec ID : V_MPEG4/ISO/AVC
Duration : 1h 46mn
Bit rate : 4 962 Kbps
Width : 1 908 pixels
Height : 1 068 pixels
Display aspect ratio : 16:9
Frame rate mode : Constant
Frame rate : 23.976 fps
Color space : YUV
Chroma subsampling : 4:2:0
Bit depth : 8 bits
Scan type : Progressive
Bits/(Pixel*Frame) : 0.102
Stream size : 3.69 GiB (91%)
Title : CRO DIAMOND 1080p
Language : English
Default : Yes
Forced : No
Color range : Limited
Color primaries : BT.709
Transfer characteristics : BT.709
Matrix coefficients : BT.709

Audio
ID : 2
Format : AC-3
Format/Info : Audio Coding 3
Mode extension : CM (complete main)
Format settings, Endianness : Big
Codec ID : A_AC3
Duration : 1h 46mn
Bit rate mode : Constant
Bit rate : 384 Kbps
Channel(s) : 6 channels
Channel positions : Front: L C R, Side: L R, LFE
Sampling rate : 48.0 KHz
Compression mode : Lossy
Stream size : 293 MiB (7%)
Language : English
Default : Yes
Forced : No

Text #1
ID : 3
Format : UTF-8
Codec ID : S_TEXT/UTF8
Codec ID/Info : UTF-8 Plain Text
Language : English
Default : No
Forced : No

Text #2
ID : 4
Format : UTF-8
Codec ID : S_TEXT/UTF8
Codec ID/Info : UTF-8 Plain Text
Language : Croatian
Default : Yes
Forced : No

Menu
00:00:00.000 : en:1
00:10:27.000 : en:2
00:21:08.000 : en:3
00:31:20.000 : en:4
00:41:17.000 : en:5
00:51:16.000 : en:6
01:01:26.000 : en:7
01:11:54.000 : en:8
01:21:58.000 : en:9
01:35:37.000 : en:10
01:41:02.000 : en:11

The Looking Glass 2015 1080p WEB-DL DD5 1 H 264 CRO-DIAMOND Torrent




Hey Friend! Like us!