Slasher com 2017 1080p WEB-DL DD5 1 H 264 CRO-DIAMOND

Slasher com 2017 1080p WEB-DL DD5 1 H 264 CRO-DIAMOND Torrent
Size: 3.3 GB
Language: English
Uploader: dmd12

Download Slasher com 2017 1080p WEB-DL DD5 1 H 264 CRO-DIAMOND Torrent torrent video for PC, tablet, MAC, IPhone or Android device.
Slasher com 2017 1080p WEB-DL DD5 1 H 264 CRO-DIAMOND Torrent For Torrent download Link. Scroll down!.


MOVIE TRAILER BELLOW.






Code:

General
Unique ID : 127948068355303513025950875127619727945 (0x6041E6D0627C9DB88EC7DEDABDEB3249)
Complete name : Slasher.com.2017.1080p.WEB-DL.DD5.1.H.264.CRO-DIAMOND.mkv
Format : Matroska
Format version : Version 4 / Version 2
File size : 3.32 GiB
Duration : 1h 29mn
Overall bit rate : 5 302 Kbps
Movie name : CRO DIAMOND 1080p
Encoded date : UTC 2017-08-12 18:37:25
Writing application : mkvmerge v7.2.0 ('On Every Street') 64bit built on Oct 7 2014 18:52:30
Writing library : libebml v1.3.0 + libmatroska v1.4.1
DURATION : 01:29:35.025000000
NUMBER_OF_FRAMES : 154322
NUMBER_OF_BYTES : 258001188
_STATISTICS_WRITING_APP : mkvmerge v7.2.0 ('On Every Street') 64bit built on Oct 7 2014 18:52:30
_STATISTICS_WRITING_DATE_UTC : 2017-08-12 18:37:25
_STATISTICS_TAGS : BPS DURATION NUMBER_OF_FRAMES NUMBER_OF_BYTES

Video
ID : 1
Format : AVC
Format/Info : Advanced Video Codec
Format profile :
[email protected]
Format settings, CABAC : Yes
Format settings, ReFrames : 4 frames
Codec ID : V_MPEG4/ISO/AVC
Duration : 1h 29mn
Bit rate : 5 000 Kbps
Width : 1 920 pixels
Height : 1 080 pixels
Display aspect ratio : 16:9
Frame rate mode : Constant
Frame rate : 23.976 fps
Color space : YUV
Chroma subsampling : 4:2:0
Bit depth : 8 bits
Scan type : Progressive
Bits/(Pixel*Frame) : 0.101
Stream size : 3.01 GiB (91%)
Title : CRO DIAMOND 1080p
Writing library : x264 core 142 r2491 24e4fed
Encoding settings : cabac=1 / ref=3 / deblock=1:0:0 / analyse=0x3:0x113 / me=hex / subme=7 / psy=1 / psy_rd=1.00:0.00 / mixed_ref=1 / me_range=16 / chroma_me=1 / trellis=1 / 8x8dct=1 / cqm=0 / deadzone=21,11 / fast_pskip=1 / chroma_qp_offset=-2 / threads=6 / lookahead_threads=1 / sliced_threads=0 / nr=0 / decimate=1 / interlaced=0 / bluray_compat=0 / constrained_intra=0 / bframes=3 / b_pyramid=2 / b_adapt=1 / b_bias=0 / direct=1 / weightb=1 / open_gop=0 / weightp=2 / keyint=600 / keyint_min=60 / scenecut=40 / intra_refresh=0 / rc_lookahead=40 / rc=abr / mbtree=1 / bitrate=5000 / ratetol=1.0 / qcomp=0.60 / qpmin=0 / qpmax=69 / qpstep=4 / vbv_maxrate=62500 / vbv_bufsize=78125 / nal_hrd=none / filler=0 / ip_ratio=1.40 / aq=1:1.00
Default : Yes
Forced : No
Color range : Limited
Color primaries : BT.709
Transfer characteristics : BT.709
Matrix coefficients : BT.709

Audio
ID : 2
Format : AC-3
Format/Info : Audio Coding 3
Mode extension : CM (complete main)
Format settings, Endianness : Big
Codec ID : A_AC3
Duration : 1h 29mn
Bit rate mode : Constant
Bit rate : 384 Kbps
Channel(s) : 6 channels
Channel positions : Front: L C R, Side: L R, LFE
Sampling rate : 44.1 KHz
Compression mode : Lossy
Stream size : 246 MiB (7%)
Language : English
Default : Yes
Forced : No

Slasher com 2017 1080p WEB-DL DD5 1 H 264 CRO-DIAMOND Torrent




Hey Friend! Like us!