Nieve Negra (2017) - 1080p x265 HEVC - SPA (ENG SUBS) [BRSHNKV]

Nieve Negra (2017) - 1080p x265 HEVC - SPA (ENG SUBS) [BRSHNKV] Torrent
Size: 1.5 GB
Language: Spanish
Uploader: Baryshnikov

Download Nieve Negra (2017) - 1080p x265 HEVC - SPA (ENG SUBS) [BRSHNKV] Torrent torrent video for PC, tablet, MAC, IPhone or Android device.
Nieve Negra (2017) - 1080p x265 HEVC - SPA (ENG SUBS) [BRSHNKV] Torrent For Torrent download Link. Scroll down!.


MOVIE TRAILER BELLOW.


Accused of killing his brother during adolescence, Salvador lives isolated in the middle of Patagonia. After several decades without seeing, his brother Marcos and his sister-in-law Laura, come to convince him to sell the lands that they share by inheritance. The crossing, in the middle of a lonely and inaccessible place, revives the duel where the roles of victim and murderer are transformed over and over again.








Tech:

Format : MPEG-4
Format profile : Base Media / Version 2
Codec ID : mp42
File size : 1.46 GiB
Duration : 1h 30mn
Overall bit rate mode : Variable
Overall bit rate : 2 305 Kbps
Movie name : Nieve Negra - 1080p x265 HEVC [BRSHNKV]
Encoded date : UTC 2018-02-12 23:45:07
Tagged date : UTC 2018-02-12 23:45:07
Writing application : HandBrake 20160211184813-ffd8cb1-master 2016021301

Video
ID : 1
Format : HEVC
Format/Info : High Efficiency Video Coding
Format profile : Main
[email protected]@Main
Codec ID : hev1
Codec ID/Info : High Efficiency Video Coding
Duration : 1h 30mn
Bit rate : 1 801 Kbps
Width : 1 800 pixels
Height : 1 080 pixels
Display aspect ratio : 5:3
Frame rate mode : Constant
Frame rate : 24.000 fps
Color space : YUV
Chroma subsampling : 4:2:0
Bit depth : 10 bits
Bits/(Pixel*Frame) : 0.039
Stream size : 1.14 GiB (78%)
Writing library : x265 1.9:[Mac OS X][clang 7.0.2][64 bit] 10bit
Encoded date : UTC 2018-02-12 23:45:07
Tagged date : UTC 2018-02-12 23:45:07
Color range : Limited
Color primaries : BT.709
Transfer characteristics : BT.709
Matrix coefficients : BT.709

Audio #1
ID : 2
Format : AAC
Format/Info : Advanced Audio Codec
Format profile : LC
Codec ID : 40
Duration : 1h 30mn
Bit rate mode : Variable
Bit rate : 165 Kbps
Channel(s) : 2 channels
Channel positions : Front: L R
Sampling rate : 48.0 KHz
Compression mode : Lossy
Stream size : 107 MiB (7%)
Title : Stereo / Stereo
Language : Spanish
Encoded date : UTC 2018-02-12 23:45:07
Tagged date : UTC 2018-02-12 23:45:07

Audio #2
ID : 3
Format : AAC
Format/Info : Advanced Audio Codec
Format profile : LC
Codec ID : 40
Duration : 1h 30mn
Bit rate mode : Variable
Bit rate : 164 Kbps
Channel(s) : 2 channels
Channel positions : Front: L R
Sampling rate : 48.0 KHz
Compression mode : Lossy
Stream size : 107 MiB (7%)
Title : Stereo / Stereo
Language : Spanish
Encoded date : UTC 2018-02-12 23:45:07
Tagged date : UTC 2018-02-12 23:45:07

Audio #3
ID : 4
Format : AAC
Format/Info : Advanced Audio Codec
Format profile : LC
Codec ID : 40
Duration : 1h 30mn
Bit rate mode : Variable
Bit rate : 163 Kbps
Channel(s) : 2 channels
Channel positions : Front: L R
Sampling rate : 48.0 KHz
Compression mode : Lossy
Stream size : 106 MiB (7%)
Title : Stereo / Stereo
Language : Spanish
Encoded date : UTC 2018-02-12 23:45:07
Tagged date : UTC 2018-02-12 23:45:07

Nieve Negra (2017) - 1080p x265 HEVC - SPA (ENG SUBS) [BRSHNKV] Torrent




Hey Friend! Like us!