Mad Families 2017 1080p WEB-DL DD5 1 H 264 CRO-DIAMOND

Mad Families 2017 1080p WEB-DL DD5 1 H 264 CRO-DIAMOND Torrent
Size: 3.4 GB
Language: English
Uploader: dmd12

Download Mad Families 2017 1080p WEB-DL DD5 1 H 264 CRO-DIAMOND Torrent torrent video for PC, tablet, MAC, IPhone or Android device.
Mad Families 2017 1080p WEB-DL DD5 1 H 264 CRO-DIAMOND Torrent For Torrent download Link. Scroll down!.


MOVIE TRAILER BELLOW.


http://images2.imagebam.com/12/61/fa/00b914732641693.png



Code:

General
Unique ID : 190543559243344761959319523624041229218 (0x8F595ACA0F5009E54421ECF6358EABA2)
Complete name : Mad.Families.2017.1080p.WEB-DL.DD5.1.H.264.CRO-DIAMOND.mkv
Format : Matroska
Format version : Version 4 / Version 2
File size : 3.44 GiB
Duration : 1h 29mn
Overall bit rate : 5 529 Kbps
Movie name : CRO DIAMOND 1080p
Encoded date : UTC 2018-01-31 10:44:10
Writing application : mkvmerge v9.6.0 ('Slave To Your Mind') 64bit
Writing library : libebml v1.3.4 + libmatroska v1.4.5
DURATION : 01:25:58.018000000
NUMBER_OF_FRAMES : 2053
NUMBER_OF_BYTES : 63853
_STATISTICS_WRITING_APP : mkvmerge v9.6.0 ('Slave To Your Mind') 64bit
_STATISTICS_WRITING_DATE_UTC : 2018-01-31 10:44:10
_STATISTICS_TAGS : BPS DURATION NUMBER_OF_FRAMES NUMBER_OF_BYTES

Video
ID : 1
Format : AVC
Format/Info : Advanced Video Codec
Format profile :
[email protected]
Format settings, CABAC : Yes
Format settings, ReFrames : 4 frames
Codec ID : V_MPEG4/ISO/AVC
Duration : 1h 29mn
Bit rate : 5 035 Kbps
Width : 1 920 pixels
Height : 1 080 pixels
Display aspect ratio : 16:9
Frame rate mode : Constant
Frame rate : 23.976 fps
Color space : YUV
Chroma subsampling : 4:2:0
Bit depth : 8 bits
Scan type : Progressive
Bits/(Pixel*Frame) : 0.101
Stream size : 3.13 GiB (91%)
Title : CRO DIAMOND 1080p
Language : English
Default : Yes
Forced : No
Color range : Limited
Color primaries : BT.709
Transfer characteristics : BT.709
Matrix coefficients : BT.709

Audio
ID : 2
Format : AC-3
Format/Info : Audio Coding 3
Mode extension : CM (complete main)
Format settings, Endianness : Big
Codec ID : A_AC3
Duration : 1h 29mn
Bit rate mode : Constant
Bit rate : 384 Kbps
Channel(s) : 6 channels
Channel positions : Front: L C R, Side: L R, LFE
Sampling rate : 48.0 KHz
Compression mode : Lossy
Stream size : 245 MiB (7%)
Language : English
Default : Yes
Forced : No

Text
ID : 3
Format : UTF-8
Codec ID : S_TEXT/UTF8
Codec ID/Info : UTF-8 Plain Text
Language : English
Default : No
Forced : No

Menu
00:00:00.000 : en:1
00:04:33.815 : en:2
00:08:31.219 : en:3
00:13:16.087 : en:4
00:17:59.370 : en:5
00:25:10.926 : en:6
00:31:22.088 : en:7
00:37:14.231 : en:8
00:44:10.897 : en:9
00:48:18.603 : en:10
00:53:46.347 : en:11
00:58:18.494 : en:12
01:03:21.338 : en:13
01:09:43.553 : en:14
01:14:23.583 : en:15
01:21:54.408 : en:16

Mad Families 2017 1080p WEB-DL DD5 1 H 264 CRO-DIAMOND Torrent




Hey Friend! Like us!