Enemy of the State 1998 1080p 1080p BRRip x264 AAC - Hon3y

Enemy of the State 1998 1080p 1080p BRRip x264 AAC - Hon3y Torrent
Size: 2.6 GB
Language: English
Uploader: Hon3yHD

Download Enemy of the State 1998 1080p 1080p BRRip x264 AAC - Hon3y Torrent torrent video for PC, tablet, MAC, IPhone or Android device.
Enemy of the State 1998 1080p 1080p BRRip x264 AAC - Hon3y Torrent For Torrent download Link. Scroll down!.


MOVIE TRAILER BELLOW.




Enemy of the State 1998 1080p 1080p BRRip x264 AAC - Hon3y


Source:Scene
Format : Matroska
Format version : Version 4 / Version 2
File size : 2.60 GiB
Duration : 2 h 12 min
Overall bit rate : 2 821 kb/s
Movie name : Enemy of the State 1998 - Hon3y


Video
ID : 1
Format : AVC
Format/Info : Advanced Video Codec
Format profile :
[email protected]
Format settings, CABAC : Yes
Format settings, RefFrames : 5 frames
Codec ID : V_MPEG4/ISO/AVC
Duration : 2 h 12 min
Bit rate : 2 500 kb/s
Width : 1 920 pixels
Height : 816 pixels
Display aspect ratio : 2.35:1
Frame rate mode : Constant
Frame rate : 23.976 (24000/1001) FPS
Language : English
Default : Yes
Forced : No
Color range : Limited
Color primaries : BT.709
Transfer characteristics : BT.709
Matrix coefficients : BT.709

Audio
ID : 2
Format : AAC
Format/Info : Advanced Audio Codec
Format profile : LC
Codec ID : A_AAC
Duration : 2 h 12 min
Bit rate : 320 kb/s
Channel(s) : 6 channels
Channel positions : Front: L C R, Side: L R, LFE
Sampling rate : 48.0 kHz
Frame rate : 46.875 FPS (1024 SPF)
Compression mode : Lossy
Delay relative to video : 9 ms
Stream size : 302 MiB (11%)
Language : English
Default : Yes
Forced : No

Text
ID : 3
Format : UTF-8
Codec ID : S_TEXT/UTF8
Codec ID/Info : UTF-8 Plain Text
Duration : 2 h 5 min
Bit rate : 81 b/s
Count of elements : 1528
Stream size : 75.5 KiB (0%)
Language : English
Default : No
Forced : No

Menu
00:00:00.000 : :Program Start
00:03:04.456 : :Eliminating the Opposition
00:06:06.514 : :Opening Credits
00:10:45.891 : :Taking On the Mob
00:15:57.835 : :A Visit With Pintero
00:21:28.787 : :A Problem at the Lake
00:26:23.873 : :Zavitz's Tape
00:32:01.711 : :Rabbit On the Run
00:37:03.583 : :Dean's People
00:42:14.823 : :Unexpected Visitors
00:47:29.721 : :Getting Into Dean's Life
00:52:33.150 : :Dean's Life in Shambles
00:57:51.176 : :Conversation With Rachel
01:03:34.227 : :A Rough Cab Ride
01:08:43.399 : :Brill
01:13:52.553 : :Moving Target
01:19:07.451 : :Tunnel Vision
01:24:09.836 : :The Jar
01:29:47.673 : :Time Bomb
01:34:55.272 : :Edward Lyle
01:40:06.000 : :Turning the Tables
01:45:24.026 : :A Call From Brill
01:50:32.667 : :"Let the Games Begin"
01:56:37.615 : :Getting the Tape Back
02:01:49.385 : :Dean's Plan
02:07:02.666 : :Wrap-Up
02:12:09.796 : :End Credits




Enemy of the State 1998 1080p 1080p BRRip x264 AAC - Hon3y Torrent




Hey Friend! Like us!