Bomb City 2017 720p BluRay x264 AAC LLG

Bomb City 2017 720p BluRay x264 AAC LLG Torrent
Size: 943.7 MB
Language: English
Uploader: LifeLongg

Download Bomb City 2017 720p BluRay x264 AAC LLG Torrent torrent video for PC, tablet, MAC, IPhone or Android device.
Bomb City 2017 720p BluRay x264 AAC LLG Torrent For Torrent download Link. Scroll down!.


MOVIE TRAILER BELLOW.


******************************Thumbnail:**********************



******************************Screenshots:********************

Screenshot 1

Screenshot 2

Screenshot 3

Screenshot 4

Screenshot 5

Screenshot 6

Screenshot 7

Screenshot 8

Screenshot 9

Screenshot 0

Complete name : Bomb.City.2017.720p.BluRay.x264.AAC.LLG.mp4
Format : MPEG-4
Format profile : Base Media
Codec ID : isom (isom/iso2/avc1/mp41)
File size : 938 MiB
Duration : 1 h 38 min
Overall bit rate : 1 332 kb/s
Writing application : Lavf57.56.101

Video
ID : 1
Format : AVC
Format/Info : Advanced Video Codec
Format profile : [email protected]
Format settings : CABAC / 4 Ref Frames
Format settings, CABAC : Yes
Format settings, RefFrames : 4 frames
Codec ID : avc1
Codec ID/Info : Advanced Video Coding
Duration : 1 h 38 min
Bit rate : 1 200 kb/s
Width : 1 280 pixels
Height : 720 pixels
Display aspect ratio : 2.40:1
Original display aspect ratio : 2.40:1
Frame rate mode : Constant
Frame rate : 23.976 (23976/1000) FPS
Color space : YUV
Chroma subsampling : 4:2:0
Bit depth : 8 bits
Scan type : Progressive
Bits/(Pixel*Frame) : 0.054
Stream size : 844 MiB (90%)

Audio
ID : 2
Format : AAC
Format/Info : Advanced Audio Codec
Format profile : LC
Codec ID : mp4a-40-2
Duration : 1 h 38 min
Duration_LastFrame : -8 ms
Bit rate mode : Constant
Bit rate : 129 kb/s
Channel(s) : 2 channels
Channel positions : Front: L R
Sampling rate : 48.0 kHz
Frame rate : 46.875 FPS (1024 SPF)
Compression mode : Lossy
Stream size : 90.7 MiB (10%)
Default : Yes
Alternate group : 1




Even it's in my dreams

Bomb City 2017 720p BluRay x264 AAC LLG Torrent




Hey Friend! Like us!